<?xml version="1.0" standalone="no"?>
<!DOCTYPE svg PUBLIC "-//W3C//DTD SVG 1.1//EN" "http://www.w3.org/Graphics/SVG/1.1/DTD/svg11.dtd">
<svg xmlns="http://www.w3.org/2000/svg">
<defs >
<font id="Inconsolata" horiz-adv-x="505" ><font-face
    font-family="Inconsolata"
    units-per-em="1000"
    panose-1="0 0 5 9 0 0 0 0 0 0"
    ascent="859"
    descent="-190"
    alphabetic="0" />
<glyph unicode=" " horiz-adv-x="500" />
<glyph unicode="!" horiz-adv-x="500" d="M215 194L190 594Q190 618 196 634T213 659T241 668Q257 668 268 660T285 633T292 584L265 194H215ZM239 -11Q215 -11 198 6T180 47Q180 71 197 89T239 107Q263 107 281 89T299 47Q299 24 281 7T239 -11Z" />
<glyph unicode="&quot;" horiz-adv-x="500" d="M391 665H471Q471 605 470 569T467 509T461 462T455 407H407Q404 439 401 461T396 508T392 568T391 665ZM285 665H365Q365 605 364 569T361 509T355 462T349 407H301Q298 439 295 461T290 508T286 568T285 665Z" />
<glyph unicode="#" horiz-adv-x="500" d="M270 10L292 193H181L160 14L101 13L122 191H25L29 236H128L148 407H39L42 453H153L173 624L234 626L213 455H323L343 622L405 623L385 457H476L470 410H379L358 241H457L452 196H353L331 14L270 10ZM187 238H297L318
408H207L187 238Z" />
<glyph unicode="$" horiz-adv-x="500" d="M235 -47V14Q199 17 168 26T110 53T60 94L103 154Q107 151 107 144T110 133Q127 115 146 103T187 83T235 72V292Q183 310 149 331T97 381T79 446Q79 483 99 513T154 564T235 591V651H299Q300 650 300 650T300 648Q300
646 297 642T293 630V592Q325 589 351 579T401 553T442 515L399 461Q394 463 394 470T388 482Q379 492 369 500T347 515T322 525T293 533V340Q351 322 387 301T442 252T460 181Q460 144 440 109T383 48T293 16V-47H235ZM293 74Q325 80 348 95T383 132T395 177Q395
201 385 218T352 248T293 273V74ZM235 361V534Q205 531 185 519T155 491T145 454Q145 435 155 419T185 388T235 361Z" />
<glyph unicode="%" horiz-adv-x="500" d="M46 0L391 623H448L100 0H46ZM371 -10Q341 -10 316 7T275 53T259 119Q259 156 274 185T315 231T371 249Q402 249 427 232T467 185T482 119Q482 83 467 54T427 7T371 -10ZM372 40Q386 40 397 48T416 74T423 118Q423 141
417 159T399 187T370 198Q357 198 345 190T326 165T318 120Q318 92 326 74T346 48T372 40ZM140 373Q110 373 85 390T44 437T28 504Q28 541 43 570T84 616T140 634Q171 634 196 617T236 570T252 503Q252 465 238 436T198 390T140 373ZM140 426Q153 426 164 433T182
458T189 504Q189 525 185 540T173 564T157 578T138 582Q126 582 115 575T97 550T89 504Q89 476 96 459T115 434T140 426Z" />
<glyph unicode="&amp;" horiz-adv-x="500" d="M416 -12L361 76Q341 50 314 31T256 1T192 -10Q147 -10 112 10T56 65T36 141Q36 173 45 202T70 257T110 305T162 343Q127 386 109 425T91 498Q91 526 101 550T131 591T175 619T228 629Q269 629 299 610T346 562T363
498Q363 474 355 449T333 401T299 360T255 330L367 173Q380 188 388 201T401 225T408 249T412 274Q412 277 413 279T416 284L481 239Q470 219 458 200T432 161T405 123L475 32L416 -12ZM199 54Q223 54 244 62T286 86T324 123L197 296Q177 284 162 267T135 231T118
192T112 152Q112 131 119 114T138 83T165 62T199 54ZM221 373Q239 382 253 395T277 424T292 458T297 492Q297 525 277 547T229 570Q211 570 195 561T170 536T160 497Q160 481 166 462T187 421T221 373Z" />
<glyph unicode="&apos;" horiz-adv-x="500" d="M210 665H290Q290 605 289 569T286 509T280 462T274 407H226Q223 439 220 461T215 508T211 568T210 665Z" />
<glyph unicode="(" horiz-adv-x="500" d="M395 -104Q312 -65 251 0T156 148T122 320Q122 409 155 489T248 633T389 735L408 673Q360 647 321 609T253 525T209 426T193 317Q193 261 208 208T253 108T322 22T414 -44L395 -104Z" />
<glyph unicode=")" horiz-adv-x="500" d="M133 -104L114 -44Q165 -17 205 21T275 107T319 208T335 317Q335 373 320 426T276 525T208 609T120 673L139 735Q220 697 280 634T373 490T406 320Q406 231 373 149T278 1T133 -104Z" />
<glyph unicode="*" horiz-adv-x="500" d="M138 123L84 167L214 317L41 370L67 435L229 359L213 536H291L273 359L432 431L458 370L287 318L413 167L358 124L250 290L138 123Z" />
<glyph unicode="+" horiz-adv-x="500" d="M222 104V291H45V352H222V523H285V352H456V291H285V104H222Z" />
<glyph unicode="," horiz-adv-x="500" d="M199 -168L165 -138Q193 -112 211 -82T230 -33Q230 -23 223 -15T205 2T187 20T179 44Q179 69 195 86T238 103Q264 103 285 80T306 20Q306 0 300 -21T280 -66T246 -115T199 -168Z" />
<glyph unicode="-" horiz-adv-x="500" d="M111 281V348H391V281H111Z" />
<glyph unicode="." horiz-adv-x="500" d="M238 -11Q214 -11 197 6T180 46Q180 69 197 86T238 103Q261 103 278 86T295 46Q295 23 278 6T238 -11Z" />
<glyph unicode="/" horiz-adv-x="500" d="M123 -42L64 -13L377 665L437 634L123 -42Z" />
<glyph unicode="0" horiz-adv-x="500" d="M107 154L374 497L397 450L130 111L107 154ZM250 -11Q188 -11 145 26T80 134T57 308Q57 407 79 478T145 588T250 627Q312 627 355 589T420 479T443 308Q443 206 421 135T355 26T250 -11ZM250 50Q288 50 315 80T356 167T371
308Q371 387 357 444T315 534T250 566Q212 566 185 534T144 445T129 308Q129 225 143 168T185 80T250 50Z" />
<glyph unicode="1" horiz-adv-x="500" d="M230 0V537L104 500L88 539L251 624H300V0H230Z" />
<glyph unicode="2" horiz-adv-x="500" d="M73 56Q127 111 172 156T252 239T313 312T351 380T364 451Q364 483 356 505T334 540T300 560T258 566Q234 566 212 559T170 539T133 503Q124 489 122 482T121 466L117 461L109 466L58 506Q78 545 108 572T176 613T257
627Q310 627 350 606T413 544T436 449Q436 408 421 370T380 294T319 220T245 144T163 61H395Q412 61 419 63T432 71H439V61V0H73V56Z" />
<glyph unicode="3" horiz-adv-x="500" d="M240 -11Q191 -11 146 7T69 60L115 115L122 123L127 118Q128 110 131 103T145 83Q162 68 184 59T237 49Q277 49 303 65T342 109T355 174Q355 210 343 235T307 274T252 294T180 296V352Q228 352 258 362T305 389T328 428T334
475Q334 496 328 513T310 542T282 560T245 567Q225 567 206 563T168 548T131 521L89 563Q123 598 163 612T244 627Q295 627 331 608T386 553T406 472Q406 440 396 412T363 362T308 330Q343 319 370 298T412 245T427 171Q427 122 406 81T343 14T240 -11V-11Z" />
<glyph unicode="4" horiz-adv-x="500" d="M318 0V153H48V204L333 624H392V211H472V152H392V0H318ZM129 212H318V498L129 212Z" />
<glyph unicode="5" horiz-adv-x="500" d="M249 -11Q192 -11 144 14T64 85L120 127L128 133L132 128Q131 120 134 113T148 93Q168 71 192 61T253 50Q277 50 299 60T337 90T364 137T374 199Q374 234 364 261T337 308T296 337T246 347Q225 347 204 340T164 320T129
288L85 306L106 623H422V560H165L155 381Q172 389 188 394T222 402T257 405Q298 405 332 391T391 349T431 283T445 196Q445 132 419 86T349 14T249 -11V-11Z" />
<glyph unicode="6" horiz-adv-x="500" d="M261 -10Q199 -10 156 26T90 128T67 284Q67 396 94 473T171 590T287 630Q326 630 360 616T424 573L380 523L373 515L368 520Q367 528 364 535T347 553Q339 559 330 562T311 566T289 568Q273 568 253 562T213 541T176 499T148
430T136 327Q150 351 171 367T217 393T268 402Q303 402 334 388T388 346T425 282T439 198Q439 136 415 89T351 16T261 -10V-10ZM264 52Q285 52 304 61T339 89T362 134T371 197Q371 235 362 262T336 306T301 332T262 341Q244 341 227 335T193 317T164 290T140 257Q136
223 142 187T165 121T207 71T264 52V52Z" />
<glyph unicode="7" horiz-adv-x="500" d="M155 0Q184 96 214 188T277 373T345 557H79V623H432V584Q404 512 377 440T325 295T278 149T234 0H155Z" />
<glyph unicode="8" horiz-adv-x="500" d="M250 -10Q191 -10 149 12T83 73T60 157Q60 193 75 226T119 286T185 331Q157 346 136 368T102 419T90 477Q90 520 108 554T163 610T255 631Q313 631 349 611T402 558T420 483Q420 461 413 439T393 398T362 362T321 333Q348
321 370 303T408 262T432 214T441 161Q441 112 418 74T352 13T250 -10ZM252 53Q291 53 317 67T356 106T370 161Q370 184 361 205T334 245T292 279T237 303Q215 294 196 280T162 247T140 208T132 164Q132 134 146 109T187 69T252 53ZM267 358Q285 368 300 382T327
412T345 445T352 481Q352 505 341 525T308 559T253 572Q220 572 199 560T168 527T157 484Q157 461 165 443T189 411T224 383T267 358Z" />
<glyph unicode="9" horiz-adv-x="500" d="M228 -10Q182 -10 145 4T79 47L122 96L129 104L134 99Q135 91 139 85T155 67Q169 58 185 54T222 50Q262 50 290 73T337 135T363 222T372 320Q372 403 359 457T319 539T250 566Q225 566 204 557T168 529T144 484T136 425Q136
395 145 372T170 332T206 306T250 297Q285 297 309 305T354 331T392 378L397 307Q378 286 357 270T310 245T249 236Q210 236 177 249T120 288T82 347T68 424Q68 468 82 505T120 569T177 612T247 627Q306 627 349 593T415 500T439 363Q439 237 414 155T341 33T228
-10V-10Z" />
<glyph unicode=":" horiz-adv-x="500" d="M238 308Q215 308 197 325T179 365Q179 389 197 406T238 423Q261 423 279 406T298 365Q298 342 280 325T238 308ZM238 -11Q213 -11 196 5T179 46Q179 70 197 87T238 104Q261 104 279 87T298 46Q298 23 281 6T238 -11Z" />
<glyph unicode=";" horiz-adv-x="500" d="M199 -168L165 -138Q193 -112 211 -82T230 -33Q230 -23 223 -15T205 2T187 20T179 44Q179 61 186 74T207 95T238 103Q264 103 285 80T306 20Q306 -6 294 -36T259 -98T199 -168ZM238 308Q215 308 197 325T179 365Q179 389
197 406T238 423Q261 423 279 406T298 365Q298 342 280 325T238 308Z" />
<glyph unicode="&lt;" horiz-adv-x="500" d="M461 47L35 296V344L458 567V496L111 319L461 123V47Z" />
<glyph unicode="=" horiz-adv-x="500" d="M45 389V450H456V389H45ZM45 182V243H456V182H45Z" />
<glyph unicode="&gt;" horiz-adv-x="500" d="M40 47V123L389 319L42 496V567L466 344V296L40 47Z" />
<glyph unicode="?" horiz-adv-x="500" d="M226 226Q226 263 236 288T262 332T295 368T329 403T355 445T365 504Q365 527 357 545T334 576T299 597T254 604Q216 604 188 593T136 558Q126 545 124 538T122 523L118 517L110 523L64 561Q86 594 111 617T172 652T257
665Q310 665 350 646T412 592T434 509Q434 469 424 441T397 392T363 354T329 320T303 280T292 226V185H226V226ZM261 -11Q237 -11 220 6T203 46Q203 69 220 86T261 103Q284 103 301 86T318 46Q318 23 301 6T261 -11Z" />
<glyph unicode="@" horiz-adv-x="500" d="M295 -11Q246 -11 199 8T114 67T54 168T31 313Q31 396 52 456T108 556T185 614T271 633Q308 633 343 619T405 577T449 507T465 408V175H405V213Q386 190 362 179T308 167Q270 167 240 184T193 231T175 299Q175 333 189
361T231 409T302 438T402 444Q402 482 386 512T340 561T268 579Q232 579 200 564T143 518T104 438T89 324Q89 252 107 200T155 114T223 63T301 46Q330 46 356 54T408 79L435 30Q403 10 368 0T295 -11ZM317 222Q340 222 356 231T384 260T400 313T405 394Q350 399
313 389T256 357T237 303Q237 266 257 244T317 222Z" />
<glyph unicode="A" horiz-adv-x="500" d="M357 182H131L145 236H341L357 182ZM249 474L85 0H16L246 634H254L484 0H412L249 474Z" />
<glyph unicode="B" horiz-adv-x="500" d="M48 0V623H225Q279 623 318 612T382 581T420 533T432 472Q432 443 422 415T391 366T340 334Q366 325 387 309T424 272T448 226T457 175Q457 136 443 104T401 48T328 13T224 0H48ZM117 61H236Q280 61 313 72T364 110T383
179Q383 216 367 244T316 289T219 306H117V61ZM117 365H215Q270 365 302 378T348 413T362 464Q362 485 355 503T331 534T289 556T226 564H117V365Z" />
<glyph unicode="C" horiz-adv-x="500" d="M285 -10Q234 -10 190 8T113 66T60 165T41 308Q41 381 55 435T93 527T148 586T213 618T281 628Q349 628 397 595T469 505L409 477L400 473L397 480Q400 488 397 494T386 515Q361 549 335 560T279 572Q240 572 209 555T155
504T121 422T109 313Q109 254 122 206T159 123T214 69T282 50Q307 50 330 59T374 85T408 126L460 92Q430 42 388 16T285 -10V-10Z" />
<glyph unicode="D" horiz-adv-x="500" d="M54 -1V623H199Q253 623 290 613T353 585T399 538Q420 510 433 475T453 399T460 308Q457 236 441 179T393 82T311 21T187 -1H54ZM120 54H184Q256 54 301 83T369 168T390 304Q390 386 370 444T308 533T195 564H120V54Z" />
<glyph unicode="E" horiz-adv-x="500" d="M59 0V624H441V562H125V357H386V293H125V62H438V0H59Z" />
<glyph unicode="F" horiz-adv-x="500" d="M78 0V624H437V563H148V367H381V306H148V0H78Z" />
<glyph unicode="G" horiz-adv-x="500" d="M277 -10Q203 -10 149 29T65 139T36 304Q35 385 50 441T92 535T150 593T214 622T274 630Q311 630 346 617T411 580T458 525L409 486L401 479L397 485Q398 493 395 499T380 519Q365 536 349 547T315 563T273 568Q246 568
221 561T175 536T138 489T114 418T105 319Q105 254 117 205T151 121T205 70T277 52Q291 52 306 54T337 60T368 72T395 90V238H282V299H460V55Q416 23 370 7T277 -10V-10Z" />
<glyph unicode="H" horiz-adv-x="500" d="M50 623H122H132V616Q126 610 125 603T123 579V357H367V623H439H449V616Q443 610 442 603T440 579V0H366V297H123V0H50V623Z" />
<glyph unicode="I" horiz-adv-x="500" d="M81 0V59H204V564H88V623H397V564H274V58H403V0H81Z" />
<glyph unicode="J" horiz-adv-x="500" d="M196 -11Q152 -11 115 6T49 58L89 108L96 116L101 112Q102 103 105 96T122 78Q139 65 156 58T196 51Q230 51 251 66T282 115T292 208V564H172V623H457V564H361V209Q363 149 350 107T313 39T259 1T196 -11V-11Z" />
<glyph unicode="K" horiz-adv-x="500" d="M166 312L117 258V0H42V623H116H126V616Q120 610 119 603T117 579V336L377 628Q383 627 389 626T401 625T415 624T429 623H455L219 354L471 0L381 -4L166 312Z" />
<glyph unicode="L" horiz-adv-x="500" d="M66 623H138H148V616Q142 610 141 603T139 579V60H439V0H66V623Z" />
<glyph unicode="M" horiz-adv-x="500" d="M41 0V623H96L250 318L407 624H460V0H394V470L259 219H232L106 467V0H41Z" />
<glyph unicode="N" horiz-adv-x="500" d="M50 623H118L380 161V623H446H456V616Q450 610 449 603T447 579V0H392L117 490V0H50V623Z" />
<glyph unicode="O" horiz-adv-x="500" d="M250 -11Q179 -11 129 26T53 134T27 308Q27 407 53 478T129 588T250 627Q322 627 371 589T447 479T473 308Q473 206 447 135T372 26T250 -11ZM250 50Q298 50 331 80T383 167T401 308Q401 387 383 444T332 534T250 566Q203
566 169 534T117 445T99 308Q99 225 117 168T169 80T250 50Z" />
<glyph unicode="P" horiz-adv-x="500" d="M59 0V623H259Q329 623 372 599T435 536T456 447Q456 411 445 380T411 325T351 288T264 275H131V0H59ZM131 337H256Q302 337 330 350T371 388T384 445Q384 476 371 501T330 541T257 557H131V337Z" />
<glyph unicode="Q" horiz-adv-x="500" d="M401 -145Q352 -147 319 -141T265 -117T235 -73T226 -7Q176 0 131 36T58 140T29 308Q29 401 50 463T105 562T177 614T251 630Q293 630 333 612T405 555T455 456T471 311Q471 242 460 188T425 93T367 28T287 -7Q289 -29
295 -46T317 -72T361 -82L442 -77L440 -145H401ZM256 55Q282 55 308 67T355 108T390 182T404 294Q404 378 390 431T352 515T302 557T251 569Q212 569 183 549T135 494T107 415T97 323Q97 244 116 184T170 89T256 55Z" />
<glyph unicode="R" horiz-adv-x="500" d="M56 0V623H240Q314 623 359 601T426 539T447 445Q447 410 432 375T388 314T320 278L464 0H386L248 275H127V0H56ZM127 337H248Q315 337 345 366T375 445Q375 476 362 501T321 542T248 557H127V337Z" />
<glyph unicode="S" horiz-adv-x="500" d="M247 -10Q186 -10 138 10T52 69L88 132L92 141L99 137Q101 130 104 122T118 101Q144 79 178 66T257 53Q285 53 308 61T349 84T376 118T386 160Q386 177 383 191T370 216T344 239T303 264T243 292Q178 317 141 346T88 409T72
477Q72 523 95 557T160 611T262 631Q296 631 327 622T386 595T435 553L396 501L390 493L384 497Q383 505 380 513T366 533Q342 556 315 564T251 573Q226 573 207 566T173 546T152 517T144 482Q144 465 148 451T162 424T189 398T233 372T298 344Q344 325 374 307T422
268T447 223T455 170Q455 127 434 86T366 17T247 -10V-10Z" />
<glyph unicode="T" horiz-adv-x="500" d="M208 0V561H31V624H463V561H279V0H208Z" />
<glyph unicode="U" horiz-adv-x="500" d="M251 -11Q151 -11 101 48T50 215V623H118H128V616Q122 610 121 603T119 579V214Q119 138 148 93T252 48Q327 48 357 93T387 217V623H454V218Q454 139 429 89T359 14T251 -11V-11Z" />
<glyph unicode="V" horiz-adv-x="500" d="M237 -4L25 624H98L258 145L409 623H478L269 -4H237Z" />
<glyph unicode="W" horiz-adv-x="500" d="M117 0L17 623H82L149 202L249 577H271L372 200L429 623H488L389 0H362L255 407L146 0H117Z" />
<glyph unicode="X" horiz-adv-x="500" d="M41 0L211 318L44 624H119L250 387L379 624H449L291 319L468 0H389L251 247L117 0H41Z" />
<glyph unicode="Y" horiz-adv-x="500" d="M220 0V246L28 623H108L261 321L399 623H473L296 246V0H220Z" />
<glyph unicode="Z" horiz-adv-x="500" d="M50 49L364 560H62V623H447V574L138 62H419Q436 62 443 64T456 72H463V62V0H50V49Z" />
<glyph unicode="[" horiz-adv-x="500" d="M131 -89V670H417V610H195V-32H418V-89H131Z" />
<glyph unicode="\" horiz-adv-x="500" d="M378 -42L64 634L123 665L437 -13L378 -42Z" />
<glyph unicode="]" horiz-adv-x="500" d="M418 -89H131V-32H354V610H132V670H418V-89Z" />
<glyph unicode="^" horiz-adv-x="500" d="M143 343L93 367L246 623H268L403 368L350 343L253 518L143 343Z" />
<glyph unicode="_" horiz-adv-x="500" d="M35 -80V-19H466V-80H35Z" />
<glyph unicode="`" horiz-adv-x="500" d="M255 507L154 642L209 682L293 533L255 507Z" />
<glyph unicode="a" horiz-adv-x="500" d="M211 -11Q133 -11 91 24T49 115Q49 152 67 181T116 231T190 263T279 274Q296 274 313 274T350 272T391 267L393 212Q375 215 357 216T320 219T285 220Q249 220 219 214T167 196T133 165T121 119Q121 98 128 84T149 61T179
48T218 44Q257 44 287 56T339 93T372 152T383 232Q383 300 367 338T320 392T239 408Q206 408 174 396T116 357L81 403Q113 435 155 451T244 467Q289 467 326 456T389 420T430 351T445 243V0H367V70Q354 45 336 29T296 5T253 -7T211 -11Z" />
<glyph unicode="b" horiz-adv-x="500" d="M266 -11Q238 -11 213 -3T168 22T131 60L106 0H60V665H132H142V658Q136 652 135 645T133 621V387Q144 405 159 420T192 446T230 462T269 468Q311 468 345 454T405 410T443 336T457 233Q457 172 441 126T398 50T336 4T266
-11V-11ZM257 53Q281 53 303 62T344 91T372 146T383 229Q383 274 374 307T349 363T309 395T259 406Q222 406 194 384T149 321T133 227Q133 188 140 156T161 101T199 66T257 53V53Z" />
<glyph unicode="c" horiz-adv-x="500" d="M285 -11Q235 -11 193 7T121 57T73 132T56 228Q56 279 73 322T120 398T193 448T284 466Q340 466 384 444T457 381L412 337L405 330L400 335Q400 343 397 350T381 369Q359 389 334 397T276 405Q247 405 221 393T175 359T142
304T130 233Q130 194 142 162T175 105T225 68T289 54Q312 54 333 60T373 79T408 110L450 61Q416 25 375 7T285 -11V-11Z" />
<glyph unicode="d" horiz-adv-x="500" d="M234 -10Q199 -10 166 5T105 50T61 126T45 233Q45 296 62 340T107 413T169 455T238 469Q270 469 295 459T340 432T371 390V665H437H447V658Q441 652 440 645T438 621L439 71Q439 53 440 36T449 0H378Q373 12 371 24T369
47T368 71Q354 47 334 29T289 0T234 -10V-10ZM245 53Q278 53 301 66T338 104T358 161T365 231Q365 282 352 322T311 386T239 410Q209 410 186 399T147 365T123 313T115 244Q115 187 130 144T174 77T245 53V53Z" />
<glyph unicode="e" horiz-adv-x="500" d="M272 -10Q222 -10 181 5T111 51T65 125T49 227Q49 285 65 330T110 405T177 452T259 468Q298 468 332 455T391 416T430 348T445 251Q445 243 445 235T443 218H118Q120 174 133 142T167 89T215 58T274 48Q298 48 319 53T358
70T392 99L432 60Q413 37 389 21T335 -2T272 -10ZM121 274H372Q372 306 364 331T340 375T303 403T254 413Q230 413 209 405T169 380T139 336T121 274Z" />
<glyph unicode="f" horiz-adv-x="500" d="M162 400H63V457H162V495Q162 556 183 595T243 652T330 671Q373 671 410 656T473 608L435 555L429 547L423 551Q422 559 419 567T405 587Q389 601 373 607T332 613Q303 613 280 602T244 565T231 495V457H381V400H231V0H162V400Z" />
<glyph unicode="g" horiz-adv-x="500" d="M247 -172Q199 -172 161 -165T95 -143T53 -106T38 -54Q38 -26 50 -4T81 32T124 54L154 36Q136 25 125 14T109 -11T104 -46Q104 -63 114 -76T142 -99T187 -113T248 -118Q294 -118 322 -109T365 -83T379 -45Q379 -23 371
-9T338 12T262 19Q227 19 198 22T146 32T108 49T84 75T76 110Q76 136 90 160T130 206L164 179Q154 168 148 160T140 144T137 127Q137 111 149 101T193 87T277 82Q330 82 363 74T413 49T438 12T445 -34Q445 -61 435 -85T401 -129T340 -160T247 -172ZM226 155Q177
155 141 176T86 234T66 315Q66 359 85 395T141 452T226 474Q276 474 311 453T366 395T386 315Q386 271 367 235T312 177T226 155ZM226 215Q255 215 277 228T313 265T326 315Q326 343 313 365T278 401T226 415Q197 415 175 402T139 366T126 315Q126 288 139 265T174
229T226 215ZM359 383L331 416Q360 445 391 458T466 469L475 410Q442 413 413 408T359 383Z" />
<glyph unicode="h" horiz-adv-x="500" d="M73 665H142H152V658Q146 652 145 645T143 621V376Q161 404 185 424T237 456T293 468Q334 468 365 449T414 388T432 277V0H362V275Q362 323 351 351T321 392T278 405Q260 405 241 399T205 381T173 352T151 312T143 263V0H73V665Z" />
<glyph unicode="i" horiz-adv-x="500" d="M100 0V58H217V399H106V457H289V58H396V0H100ZM505 553Q484 553 469 568T454 604Q454 626 468 641T505 656Q526 656 541 641T557 604Q557 583 542 568T505 553Z" />
<glyph unicode="j" horiz-adv-x="500" d="M194 -174Q151 -174 113 -158T48 -110L88 -56L94 -48L100 -52Q102 -60 105 -67T119 -87Q133 -98 151 -105T193 -112Q223 -112 246 -99T283 -57T296 18V398H126V457H369V22Q369 -47 345 -90T282 -154T194 -174V-174ZM327
553Q306 553 291 568T276 604Q276 626 290 641T327 656Q348 656 363 641T379 604Q379 583 364 568T327 553Z" />
<glyph unicode="k" horiz-adv-x="500" d="M199 229L139 173V0H66V665H138H148V658Q142 652 141 645T139 621V247L368 459Q374 458 380 457T392 456T406 455T421 454H447L255 273L479 0L386 -4L199 229Z" />
<glyph unicode="l" horiz-adv-x="500" d="M79 0V58H214V607H85V665H287V58H421V0H79Z" />
<glyph unicode="m" horiz-adv-x="500" d="M38 0V457H104V412Q115 429 129 441T161 461T197 468Q217 468 234 460T262 436T278 401Q287 421 302 436T338 459T381 468Q404 468 421 459T449 435T465 398T469 351V0H403V324Q403 366 398 385T382 409T360 415Q341 415
325 398T298 354T287 302V0H220V318Q220 375 210 394T170 413Q159 413 148 406T126 385T110 351T104 305V0H38Z" />
<glyph unicode="n" horiz-adv-x="500" d="M72 0V457H142V376Q160 404 184 424T237 456T297 468Q335 468 365 449T413 388T431 277V0H361V275Q361 323 350 351T320 392T277 405Q254 405 231 395T187 367T155 322T142 263V0H72Z" />
<glyph unicode="o" horiz-adv-x="500" d="M250 -8Q188 -8 141 22T66 106T39 229Q39 299 66 352T140 436T250 467Q312 467 359 437T434 353T461 229Q461 160 434 107T360 23T250 -8ZM250 52Q290 52 320 75T367 138T385 230Q385 282 368 322T320 384T250 407Q211
407 181 385T133 322T115 230Q115 178 132 138T180 75T250 52Z" />
<glyph unicode="p" horiz-adv-x="500" d="M60 -167V457H133V367Q144 402 164 424T212 456T272 467Q310 467 344 453T405 409T447 336T463 232Q463 172 447 126T403 50T341 4T270 -12Q243 -12 218 -4T171 21T134 60V-167H60ZM258 52Q282 52 305 60T347 89T377 143T388
229Q388 284 374 322T334 382T269 405Q241 407 217 397T173 364T144 304T133 213Q134 181 140 155T157 110T183 78T217 59T258 52Z" />
<glyph unicode="q" horiz-adv-x="500" d="M370 -167V73Q356 48 335 29T287 0T230 -10Q191 -10 157 7T97 56T57 132T42 230Q42 287 58 331T101 406T165 453T243 469Q267 469 287 464T323 448T352 423T374 390V457H442V-167H370ZM243 53Q269 53 291 63T331 96T358
155T368 241Q368 288 360 320T335 372T298 401T251 410Q223 410 198 400T155 368T126 313T115 233Q115 191 124 158T150 102T190 66T243 53Z" />
<glyph unicode="r" horiz-adv-x="500" d="M119 457H194L191 324L182 339Q188 370 203 394T239 434T285 459T337 468Q373 468 403 456T458 418L426 362L422 353L415 357Q413 365 409 372T392 389Q376 399 363 402T332 406Q307 406 282 397T237 367T204 316T192
242V-1H119V457Z" />
<glyph unicode="s" horiz-adv-x="500" d="M251 -10Q213 -10 179 -2T114 22T57 62L97 130L103 139L109 135Q111 127 113 119T127 98Q148 77 177 64T253 50Q290 50 315 59T355 84T369 123Q369 138 363 149T344 171T308 191T254 211Q202 226 163 246T103 292T82 353Q82
388 101 413T157 453T250 468Q282 468 308 464T356 450T396 428T432 396L391 346L384 338L379 343Q378 351 375 358T360 377Q337 395 308 404T252 414Q212 414 183 400T154 357Q154 342 164 328T203 299T283 269Q340 251 374 233T424 190T440 133Q440 95 420 62T357
10T251 -10V-10Z" />
<glyph unicode="t" horiz-adv-x="500" d="M299 -7Q255 -7 227 8T184 54T165 134T162 248L174 574L249 583L259 584L260 577Q255 570 252 563T246 539L237 426L240 408L233 243Q230 167 237 126T262 69T310 53Q343 53 368 66T422 99L444 42Q410 17 374 5T299 -7V-7ZM70
457H399V398H70V457Z" />
<glyph unicode="u" horiz-adv-x="500" d="M221 -11Q194 -11 170 -3T127 21T93 63T72 123T64 202L65 457H135V202Q135 159 143 129T165 81T199 55T239 47Q263 47 285 56T324 85T352 134T362 205V457H432V71Q432 53 433 36T442 0H373Q368 12 366 23T364 47T363 70Q352
51 337 36T304 11T265 -5T221 -11Z" />
<glyph unicode="v" horiz-adv-x="500" d="M221 0L40 457H112L260 82H246L327 268Q351 323 365 370T387 457H455Q447 415 430 365T388 257L277 0H221Z" />
<glyph unicode="w" horiz-adv-x="500" d="M108 -1L16 457H79L153 90L231 414H275L372 91Q385 180 393 237T406 330T412 392T414 442V457H481Q471 380 460 304T435 151T405 -1H337L253 295L173 -1H108Z" />
<glyph unicode="x" horiz-adv-x="500" d="M47 0L208 232L50 457H129L248 288L362 457H436L288 235L456 0H374L248 178L129 0H47Z" />
<glyph unicode="y" horiz-adv-x="500" d="M127 -174Q95 -174 69 -164T22 -135L53 -86L59 -77L65 -81Q67 -89 72 -94T91 -109Q100 -112 110 -113T131 -115Q158 -115 176 -102T209 -62T236 6L323 275Q338 321 352 366T371 457H443Q436 411 421 364T389 270L275 -52Q251
-119 214 -146T127 -174V-174ZM46 457H121L269 76L237 -13L46 457Z" />
<glyph unicode="z" horiz-adv-x="500" d="M50 49L333 394H71V457H426V408L148 62H406Q423 62 430 64T443 72H450V62V0H50V49Z" />
<glyph unicode="{" horiz-adv-x="500" d="M371 -95Q299 -95 251 -81T180 -28T159 80L163 180Q163 224 153 248T122 282T73 292H53V348H72Q103 348 123 359T154 393T165 455L163 527Q163 585 183 623T244 681T345 701H408V644H326Q280 644 257 618T233 538L235
468Q235 431 226 403T197 354T148 320Q177 311 195 291T223 239T233 165L230 81Q230 36 243 10T284 -28T356 -39H407V-95H371Z" />
<glyph unicode="|" horiz-adv-x="500" d="M217 -151V652H284V-151H217Z" />
<glyph unicode="}" horiz-adv-x="500" d="M91 -95H55V-39H106Q151 -39 178 -28T219 9T232 81L229 165Q229 208 238 239T267 290T314 320Q285 333 266 353T237 402T227 468L229 538Q229 591 206 617T136 644H54V701H117Q178 701 218 682T278 624T299 527L297 455Q297
417 307 394T339 359T390 348H409V292H389Q361 292 341 283T310 249T299 180L303 80Q306 10 283 -28T212 -80T91 -95Z" />
<glyph unicode="~" horiz-adv-x="500" d="M348 266Q322 266 302 274T266 293T233 312T196 320Q173 320 155 310T120 273L71 295Q82 318 98 336T139 364T194 375Q220 375 239 367T274 348T306 329T344 321Q366 321 381 331T415 369L461 341Q444 313 427 297T392
273T348 266Z" />
<glyph unicode="&#xa0;" horiz-adv-x="500" />
<glyph unicode="&#xa1;" horiz-adv-x="500" d="M215 393H265L292 3Q292 -27 286 -45T268 -72T241 -81Q225 -81 214 -73T196 -47T190 -7L215 393ZM239 598Q263 598 281 581T299 540Q299 516 281 498T239 480Q215 480 198 498T180 540Q180 564 197 581T239 598Z" />
<glyph unicode="&#xa2;" horiz-adv-x="500" d="M246 -73H194L289 623H338L246 -73ZM285 32Q235 32 193 50T121 100T73 175T56 271Q56 322 73 365T120 441T193 491T284 509Q340 509 384 487T457 424L412 380L405 373L400 378Q400 386 397 393T381 412Q359 432 334
440T276 448Q247 448 221 436T175 402T142 347T130 276Q130 237 142 205T175 148T225 111T289 97Q312 97 333 103T373 122T408 153L450 104Q416 68 375 50T285 32V32Z" />
<glyph unicode="&#xa3;" horiz-adv-x="500" d="M65 -8L39 49Q80 69 103 91T137 144T148 222Q148 241 145 265T133 321H67V378H119Q115 395 114 411T112 442Q112 497 136 537T200 600T288 623Q325 623 357 611T418 572L374 517Q357 537 336 551T270 566Q243 566
223 551T191 509T179 443Q179 430 181 414T187 378H317V321H201Q208 293 211 269T214 224Q214 199 210 176T198 131T178 90Q205 93 231 88T281 74T328 58T373 51Q392 51 409 58T444 79L470 27Q444 6 418 -4T366 -15Q352 -15 330 -8T280 7T227 23T180 30Q158 30
129 21T65 -8Z" />
<glyph unicode="&#xa4;" horiz-adv-x="500" d="M104 164L68 199L124 256Q110 276 103 299T96 345Q96 369 103 392T125 435L68 492L104 527L160 471Q180 485 203 492T251 500Q274 500 296 493T340 472L396 527L432 492L376 437Q391 416 398 393T406 345Q406 320
399 297T377 254L432 199L396 164L341 219Q321 204 298 197T251 190Q226 190 203 197T159 220L104 164ZM250 245Q283 245 305 259T339 296T351 345Q351 373 340 395T306 432T250 446Q219 446 197 432T162 396T150 345Q150 318 161 296T195 259T250 245Z" />
<glyph unicode="&#xa5;" horiz-adv-x="500" d="M238 217H84V274H238V217ZM278 274H426V217H278V274ZM238 98H84V154H238V98ZM278 154H426V98H278V154ZM292 0H224V295L36 624H114L259 363L392 623H466L292 295V0Z" />
<glyph unicode="&#xa6;" horiz-adv-x="500" d="M217 295V652H284V295H217ZM217 -151V196H284V-151H217Z" />
<glyph unicode="&#xa7;" horiz-adv-x="500" d="M238 -54Q187 -54 142 -33T65 31L117 92Q123 90 124 87T126 79T133 64T154 41Q165 31 177 25T203 16T234 12Q258 12 277 18T310 35T330 60T337 91Q337 114 327 130T292 161T220 188Q169 205 138 223T93 263T79 316Q79
333 85 348T101 376T127 400T161 417Q127 437 111 465T94 530Q94 568 115 600T174 652T257 672Q290 672 319 662T373 631T413 583L356 533Q354 535 353 538T350 544Q348 557 340 569T320 591T291 607T256 613Q232 613 212 603T179 575T167 536Q167 513 176 498T204
471T254 447T326 419Q349 408 366 396T394 369T412 339T418 305Q418 285 409 266T383 233T344 209Q376 187 392 160T408 98Q408 65 395 37T359 -11T305 -42T238 -54ZM307 228Q319 235 327 244T339 265T343 292Q343 309 337 321T319 345T287 365T240 384L197 399Q187
396 179 390T164 375T155 357T152 336Q152 320 158 306T176 281T209 261T256 244Q273 239 286 236T307 228Z" />
<glyph unicode="&#xa8;" horiz-adv-x="500" d="M163 564Q142 564 127 579T112 614Q112 634 127 649T163 665Q183 665 198 650T213 614Q213 594 198 579T163 564ZM341 564Q320 564 306 578T291 614Q291 635 305 650T341 665Q361 665 376 650T391 614Q391 594 376
579T341 564Z" />
<glyph unicode="&#xa9;" horiz-adv-x="500" d="M261 122Q220 122 187 143T135 199T115 276Q115 308 127 334T159 381T204 413T254 424Q308 424 342 399T387 331L335 312Q331 319 331 324T330 334T324 346T302 364Q294 369 284 371T262 374Q248 374 233 369T203
353T180 324T171 281Q171 251 183 227T217 189T265 174Q281 174 295 179T321 195T340 219L384 190Q363 158 330 140T261 122ZM255 19Q205 19 162 39T85 94T33 175T14 274Q14 327 33 373T85 455T162 510T256 530Q305 530 349 510T426 455T479 374T498 274Q498 231
486 193T451 123T399 68T332 32T255 19ZM257 62Q297 62 333 79T396 125T439 193T455 275Q455 319 440 357T397 425T334 471T257 488Q216 488 180 472T117 426T75 358T59 274Q59 230 74 192T117 124T180 79T257 62Z" />
<glyph unicode="&#xaa;" horiz-adv-x="500" d="M219 258Q162 258 131 286T100 357Q100 396 122 424T184 467T274 482Q285 482 297 482T322 480T349 477L350 430Q339 432 326 433T301 434T277 435Q241 435 216 427T176 403T162 362Q162 342 170 330T194 312T227
307Q254 307 274 316T309 342T330 386T338 448Q338 498 328 526T296 565T241 577Q217 577 195 569T153 540L122 579Q147 605 178 616T245 628Q290 628 323 613T375 562T394 459V267H329V317Q319 299 307 288T279 270T249 261T219 258ZM76 211H425V157H76V211Z"
/>
<glyph unicode="&#xab;" horiz-adv-x="500" d="M225 61L67 230V253L219 400L258 359L137 241L265 101L225 61ZM406 61L249 230V253L400 400L439 359L318 241L446 101L406 61Z" />
<glyph unicode="&#xac;" horiz-adv-x="500" d="M350 157V284H91V347H414V157H350Z" />
<glyph unicode="&#xad;" horiz-adv-x="500" d="M111 281V348H391V281H111Z" />
<glyph unicode="&#xae;" horiz-adv-x="500" d="M329 131L267 256H201V133H155V425H249Q293 425 319 414T357 384T369 340Q369 315 355 293T312 263L376 138L329 131ZM201 296H253Q288 296 306 307T324 340Q324 362 306 373T250 384H201V296ZM255 19Q205 19 162
39T85 94T33 175T14 274Q14 327 33 373T85 455T162 510T256 530Q305 530 349 510T426 455T479 374T498 274Q498 231 486 193T451 123T399 68T332 32T255 19ZM257 62Q297 62 333 79T396 125T439 193T455 275Q455 319 440 357T397 425T334 471T257 488Q216 488 180
472T117 426T75 358T59 274Q59 230 74 192T117 124T180 79T257 62Z" />
<glyph unicode="&#xaf;" horiz-adv-x="500" d="M123 565V621H377V565H123Z" />
<glyph unicode="&#xb0;" horiz-adv-x="500" d="M256 370Q219 370 188 388T139 436T121 504Q121 533 132 557T161 600T204 628T256 639Q293 639 323 621T372 572T391 504Q391 468 373 438T325 389T256 370ZM256 425Q278 425 294 436T321 465T331 505Q331 526 322
544T296 574T257 586Q237 586 220 575T192 545T182 505Q182 484 192 466T219 436T256 425Z" />
<glyph unicode="&#xb1;" horiz-adv-x="500" d="M222 155V343H45V404H222V575H285V404H456V343H285V155H222ZM46 17V80H457V17H46Z" />
<glyph unicode="&#xb2;" horiz-adv-x="500" d="M126 287Q173 330 209 362T271 421T310 473T324 525Q324 549 315 563T290 583T254 589Q234 589 216 583T182 565Q172 552 169 545T166 530L162 525L154 531L115 562Q137 597 173 616T254 636Q290 636 318 623T363
585T379 525Q379 494 365 466T327 411T272 354T204 292H337Q354 292 361 294T374 302H381V292V246H126V287Z" />
<glyph unicode="&#xb3;" horiz-adv-x="500" d="M242 239Q207 239 175 250T121 284L154 324L161 332L166 327Q167 319 171 313T188 296Q199 291 211 288T240 284Q278 284 298 304T318 355Q318 383 304 399T263 421T199 425V468Q231 468 251 473T284 487T300 510T305
537Q305 554 297 565T276 583T244 590Q223 590 204 584T167 561L133 594Q156 617 185 626T244 636Q297 636 329 609T361 539Q361 508 344 485T296 451Q318 444 335 432T363 400T374 353Q374 321 359 295T314 254T242 239V239Z" />
<glyph unicode="&#xb4;" horiz-adv-x="500" d="M254 522L216 548L300 697L355 657L254 522Z" />
<glyph unicode="&#xb5;" horiz-adv-x="500" d="M24 -167Q24 -150 26 -114T31 -33T37 58T42 142T44 202V457H110V186Q110 144 118 117T139 73T170 50T207 43Q240 43 262 61T296 113T308 192V457H372V116Q372 93 376 78T390 55T412 47Q426 47 440 59T461 84L467
96L494 45Q475 17 454 4T406 -10Q385 -10 367 0T338 28T324 67Q313 41 293 24T250 -1T201 -10Q177 -10 155 -3T115 21T87 60Q87 32 87 4T87 -53T87 -110T86 -167H24Z" />
<glyph unicode="&#xb6;" horiz-adv-x="500" d="M243 -68V322Q206 324 173 338T116 377T78 434T64 502Q64 545 87 582T165 642T311 665H436V-68H378V608H302V-68H243Z" />
<glyph unicode="&#xb7;" horiz-adv-x="500" d="M238 274Q213 274 196 290T179 331Q179 355 197 371T238 388Q261 388 279 372T298 331Q298 308 281 291T238 274Z" />
<glyph unicode="&#xb8;" horiz-adv-x="500" d="M268 -197Q242 -197 217 -190T169 -166L194 -124Q213 -139 234 -146T281 -154Q307 -154 319 -145T331 -118Q331 -102 317 -94T280 -85H250L261 0H305L299 -47Q329 -49 347 -59T375 -83T384 -112Q384 -146 356 -171T268
-197Z" />
<glyph unicode="&#xb9;" horiz-adv-x="500" d="M232 246V570L149 546L136 579L247 633H288V246H232Z" />
<glyph unicode="&#xba;" horiz-adv-x="500" d="M250 260Q205 260 170 283T114 347T93 444Q93 499 113 540T169 605T250 628Q296 628 331 605T386 541T407 444Q407 389 387 348T331 283T250 260ZM250 312Q278 312 298 328T331 375T343 445Q343 485 331 514T298
560T250 577Q223 577 202 561T169 515T157 445Q157 405 169 375T202 329T250 312ZM76 211H425V157H76V211Z" />
<glyph unicode="&#xbb;" horiz-adv-x="500" d="M293 61L253 101L381 241L260 359L299 400L451 253V230L293 61ZM112 61L72 101L200 241L79 359L118 400L269 253V230L112 61Z" />
<glyph unicode="&#xbc;" horiz-adv-x="500" d="M93 380V632L29 612L18 643L106 686H143V380H93ZM396 -70V3H257V35L407 236H445V42H490V2H445V-70H396ZM312 42H397V158L312 42ZM123 -42L76 -16L389 665L437 638L123 -42Z" />
<glyph unicode="&#xbd;" horiz-adv-x="500" d="M93 380V632L29 612L18 643L106 686H143V380H93ZM280 -70V-34Q318 1 347 26T395 72T425 111T436 151Q436 168 429 178T410 192T382 197Q366 197 352 193T327 179T306 153L272 180Q289 208 318 223T382 239Q411 239
434 229T470 198T484 151Q484 126 474 105T445 63T403 20T350 -29H485V-70H280ZM123 -42L76 -16L389 665L437 638L123 -42Z" />
<glyph unicode="&#xbe;" horiz-adv-x="500" d="M103 374Q75 374 49 383T5 410L33 446L40 454L45 450Q46 442 51 436T69 420Q75 417 83 416T101 414Q130 414 145 428T160 466Q160 488 149 500T118 517T68 519V557Q93 557 109 560T134 571T147 588T151 607Q151 620
145 629T129 643T104 648Q88 648 73 643T43 625L14 654Q33 673 57 681T104 689Q148 689 174 668T200 611Q200 586 186 568T149 542Q174 535 192 516T210 464Q210 427 182 401T103 374V374ZM396 3H257V35L407 236H445V42H490V2H445V-70H396V3ZM397 42V158L312 42H397ZM123
-42L76 -16L389 665L437 638L123 -42Z" />
<glyph unicode="&#xbf;" horiz-adv-x="500" d="M272 316Q272 280 262 255T236 210T203 174T169 139T143 97T133 38Q133 16 141 -2T164 -34T199 -55T244 -62Q282 -62 311 -51T362 -16Q372 -3 374 4T376 19L380 25L388 19L434 -19Q413 -51 387 -74T326 -110T241
-123Q188 -123 148 -104T86 -50T64 33Q64 74 74 102T101 150T135 188T169 222T195 262T206 316V357H272V316ZM237 553Q261 553 278 536T295 496Q295 473 278 456T237 439Q214 439 197 456T180 496Q180 519 197 536T237 553V553Z" />
<glyph unicode="&#xc0;" horiz-adv-x="500" d="M357 182H131L145 236H341L357 182ZM249 474L85 0H16L246 634H254L484 0H412L249 474ZM805 660L635 721L675 791L828 702L805 660Z" />
<glyph unicode="&#xc1;" horiz-adv-x="500" d="M357 182H131L145 236H341L357 182ZM249 474L85 0H16L246 634H254L484 0H412L249 474ZM433 660L410 702L562 791L602 721L433 660Z" />
<glyph unicode="&#xc2;" horiz-adv-x="500" d="M357 182H131L145 236H341L357 182ZM249 474L85 0H16L246 634H254L484 0H412L249 474ZM125 655L92 693L235 791H257L408 692L378 656L248 726L125 655Z" />
<glyph unicode="&#xc3;" horiz-adv-x="500" d="M357 182H131L145 236H341L357 182ZM249 474L85 0H16L246 634H254L484 0H412L249 474ZM891 791L937 763Q915 721 895 705T844 688Q822 688 805 696T773 715T744 734T712 742Q695 742 682 732T656 695L607 717Q621
751 646 774T710 797Q732 797 748 789T779 770T807 751T840 743Q856 743 866 753T891 791Z" />
<glyph unicode="&#xc4;" horiz-adv-x="500" d="M357 182H131L145 236H341L357 182ZM249 474L85 0H16L246 634H254L484 0H412L249 474ZM416 688Q396 688 381 703T366 738Q366 758 381 773T416 789Q437 789 452 774T467 738Q467 718 452 703T416 688ZM594 688Q574
688 560 702T545 738Q545 759 559 774T594 789Q615 789 630 774T645 738Q645 718 630 703T594 688Z" />
<glyph unicode="&#xc5;" horiz-adv-x="500" d="M357 182H131L145 236H341L357 182ZM249 474L85 0H16L246 634H254L484 0H412L249 474ZM506 619Q481 619 460 631T427 663T414 707Q414 731 427 751T461 783T506 795Q531 795 551 783T584 751T597 706Q597 683 585
663T553 631T506 619ZM507 662Q524 662 536 675T548 707Q548 727 536 740T507 753Q490 753 478 740T465 707Q465 688 477 675T507 662Z" />
<glyph unicode="&#xc6;" horiz-adv-x="500" d="M15 0L211 624H495V562H324V357H469V293H324V62H493V0H263V169H133L79 0H15ZM147 227H263V562H252L147 227Z" />
<glyph unicode="&#xc7;" horiz-adv-x="500" d="M285 -10Q234 -10 190 8T113 66T60 165T41 308Q41 381 55 435T93 527T148 586T213 618T281 628Q349 628 397 595T469 505L409 477L400 473L397 480Q400 488 397 494T386 515Q361 549 335 560T279 572Q240 572 209
555T155 504T121 422T109 313Q109 254 122 206T159 123T214 69T282 50Q307 50 330 59T374 85T408 126L460 92Q430 42 388 16T285 -10V-10ZM277 -197Q251 -197 226 -190T178 -166L203 -124Q222 -139 243 -146T290 -154Q316 -154 328 -145T340 -118Q340 -102 326
-94T289 -85H259L270 0H314L308 -47Q338 -49 356 -59T384 -83T393 -112Q393 -146 365 -171T277 -197Z" />
<glyph unicode="&#xc8;" horiz-adv-x="500" d="M59 0V624H441V562H125V357H386V293H125V62H438V0H59ZM814 660L644 721L684 791L837 702L814 660Z" />
<glyph unicode="&#xc9;" horiz-adv-x="500" d="M59 0V624H441V562H125V357H386V293H125V62H438V0H59ZM442 660L419 702L571 791L611 721L442 660Z" />
<glyph unicode="&#xca;" horiz-adv-x="500" d="M59 0V624H441V562H125V357H386V293H125V62H438V0H59ZM134 655L101 693L244 791H266L417 692L387 656L257 726L134 655Z" />
<glyph unicode="&#xcb;" horiz-adv-x="500" d="M59 0V624H441V562H125V357H386V293H125V62H438V0H59ZM169 688Q149 688 134 703T119 738Q119 758 134 773T169 789Q190 789 205 774T220 738Q220 718 205 703T169 688ZM347 688Q327 688 313 702T298 738Q298 759
312 774T347 789Q368 789 383 774T398 738Q398 718 383 703T347 688Z" />
<glyph unicode="&#xcc;" horiz-adv-x="500" d="M81 0V59H204V564H88V623H397V564H274V58H403V0H81ZM794 660L624 721L664 791L817 702L794 660Z" />
<glyph unicode="&#xcd;" horiz-adv-x="500" d="M81 0V59H204V564H88V623H397V564H274V58H403V0H81ZM422 660L399 702L551 791L591 721L422 660Z" />
<glyph unicode="&#xce;" horiz-adv-x="500" d="M81 0V59H204V564H88V623H397V564H274V58H403V0H81ZM370 655L337 693L480 791H502L653 692L623 656L493 726L370 655Z" />
<glyph unicode="&#xcf;" horiz-adv-x="500" d="M81 0V59H204V564H88V623H397V564H274V58H403V0H81ZM405 688Q385 688 370 703T355 738Q355 758 370 773T405 789Q426 789 441 774T456 738Q456 718 441 703T405 688ZM583 688Q563 688 549 702T534 738Q534 759 548
774T583 789Q604 789 619 774T634 738Q634 718 619 703T583 688Z" />
<glyph unicode="&#xd0;" horiz-adv-x="500" d="M79 -1V301H30V359H79V623H218Q265 623 299 613T357 586T398 549T427 506Q436 490 445 463T460 398T466 309Q466 236 449 178T398 81T316 20T205 -1H79ZM143 57H203Q267 57 310 86T376 172T399 306Q399 386 380 444T319
533T214 564H143V359H248V301H143V57Z" />
<glyph unicode="&#xd1;" horiz-adv-x="500" d="M50 623H118L380 161V623H446H456V616Q450 610 449 603T447 579V0H392L117 490V0H50V623ZM891 791L937 763Q915 721 895 705T844 688Q822 688 805 696T773 715T744 734T712 742Q695 742 682 732T656 695L607 717Q621
751 646 774T710 797Q732 797 748 789T779 770T807 751T840 743Q856 743 866 753T891 791Z" />
<glyph unicode="&#xd2;" horiz-adv-x="500" d="M250 -11Q179 -11 129 26T53 134T27 308Q27 407 53 478T129 588T250 627Q322 627 371 589T447 479T473 308Q473 206 447 135T372 26T250 -11ZM250 50Q298 50 331 80T383 167T401 308Q401 387 383 444T332 534T250
566Q203 566 169 534T117 445T99 308Q99 225 117 168T169 80T250 50ZM805 660L635 721L675 791L828 702L805 660Z" />
<glyph unicode="&#xd3;" horiz-adv-x="500" d="M250 -11Q179 -11 129 26T53 134T27 308Q27 407 53 478T129 588T250 627Q322 627 371 589T447 479T473 308Q473 206 447 135T372 26T250 -11ZM250 50Q298 50 331 80T383 167T401 308Q401 387 383 444T332 534T250
566Q203 566 169 534T117 445T99 308Q99 225 117 168T169 80T250 50ZM433 660L410 702L562 791L602 721L433 660Z" />
<glyph unicode="&#xd4;" horiz-adv-x="500" d="M250 -11Q179 -11 129 26T53 134T27 308Q27 407 53 478T129 588T250 627Q322 627 371 589T447 479T473 308Q473 206 447 135T372 26T250 -11ZM250 50Q298 50 331 80T383 167T401 308Q401 387 383 444T332 534T250
566Q203 566 169 534T117 445T99 308Q99 225 117 168T169 80T250 50ZM125 655L92 693L235 791H257L408 692L378 656L248 726L125 655Z" />
<glyph unicode="&#xd5;" horiz-adv-x="500" d="M250 -11Q179 -11 129 26T53 134T27 308Q27 407 53 478T129 588T250 627Q322 627 371 589T447 479T473 308Q473 206 447 135T372 26T250 -11ZM250 50Q298 50 331 80T383 167T401 308Q401 387 383 444T332 534T250
566Q203 566 169 534T117 445T99 308Q99 225 117 168T169 80T250 50ZM891 791L937 763Q915 721 895 705T844 688Q822 688 805 696T773 715T744 734T712 742Q695 742 682 732T656 695L607 717Q621 751 646 774T710 797Q732 797 748 789T779 770T807 751T840 743Q856
743 866 753T891 791Z" />
<glyph unicode="&#xd6;" horiz-adv-x="500" d="M250 -11Q179 -11 129 26T53 134T27 308Q27 407 53 478T129 588T250 627Q322 627 371 589T447 479T473 308Q473 206 447 135T372 26T250 -11ZM250 50Q298 50 331 80T383 167T401 308Q401 387 383 444T332 534T250
566Q203 566 169 534T117 445T99 308Q99 225 117 168T169 80T250 50ZM416 688Q396 688 381 703T366 738Q366 758 381 773T416 789Q437 789 452 774T467 738Q467 718 452 703T416 688ZM594 688Q574 688 560 702T545 738Q545 759 559 774T594 789Q615 789 630 774T645
738Q645 718 630 703T594 688Z" />
<glyph unicode="&#xd7;" horiz-adv-x="500" d="M381 145L254 278L129 149L85 193L211 324L85 457L132 503L256 372L382 503L430 459L300 325L427 191L381 145Z" />
<glyph unicode="&#xd8;" horiz-adv-x="500" d="M85 -42L41 -22L416 682L458 660L85 -42ZM250 -11Q179 -11 129 26T53 134T27 308Q27 407 53 478T129 588T250 627Q322 627 371 589T447 479T473 308Q473 206 447 135T372 26T250 -11ZM250 50Q298 50 331 80T383 167T401
308Q401 387 383 444T332 534T250 566Q203 566 169 534T117 445T99 308Q99 225 117 168T169 80T250 50Z" />
<glyph unicode="&#xd9;" horiz-adv-x="500" d="M251 -11Q151 -11 101 48T50 215V623H118H128V616Q122 610 121 603T119 579V214Q119 138 148 93T252 48Q327 48 357 93T387 217V623H454V218Q454 139 429 89T359 14T251 -11V-11ZM805 660L635 721L675 791L828 702L805 660Z" />
<glyph unicode="&#xda;" horiz-adv-x="500" d="M251 -11Q151 -11 101 48T50 215V623H118H128V616Q122 610 121 603T119 579V214Q119 138 148 93T252 48Q327 48 357 93T387 217V623H454V218Q454 139 429 89T359 14T251 -11V-11ZM433 660L410 702L562 791L602 721L433 660Z" />
<glyph unicode="&#xdb;" horiz-adv-x="500" d="M251 -11Q151 -11 101 48T50 215V623H118H128V616Q122 610 121 603T119 579V214Q119 138 148 93T252 48Q327 48 357 93T387 217V623H454V218Q454 139 429 89T359 14T251 -11V-11ZM125 655L92 693L235 791H257L408
692L378 656L248 726L125 655Z" />
<glyph unicode="&#xdc;" horiz-adv-x="500" d="M251 -11Q151 -11 101 48T50 215V623H118H128V616Q122 610 121 603T119 579V214Q119 138 148 93T252 48Q327 48 357 93T387 217V623H454V218Q454 139 429 89T359 14T251 -11V-11ZM416 688Q396 688 381 703T366 738Q366
758 381 773T416 789Q437 789 452 774T467 738Q467 718 452 703T416 688ZM594 688Q574 688 560 702T545 738Q545 759 559 774T594 789Q615 789 630 774T645 738Q645 718 630 703T594 688Z" />
<glyph unicode="&#xdd;" horiz-adv-x="500" d="M220 0V246L28 623H108L261 321L399 623H473L296 246V0H220ZM433 660L410 702L562 791L602 721L433 660Z" />
<glyph unicode="&#xde;" horiz-adv-x="500" d="M59 0V623H137Q138 622 138 622T139 620Q139 617 135 611T129 595V506H259Q329 506 372 482T435 418T456 330Q456 282 436 243T374 181T264 158H129V0H59ZM129 219H264Q307 219 333 233T372 273T384 328Q384 359
371 384T330 424T257 440H129V219Z" />
<glyph unicode="&#xdf;" horiz-adv-x="500" d="M281 -10Q252 -10 226 -3T177 21L212 77Q227 65 245 59T285 53Q306 53 326 63T363 93T388 137T398 193Q398 220 389 244T361 285T313 313T244 323H214V380H250Q265 380 279 384T307 398T330 420T346 450T352 490Q352
516 344 537T320 576T285 602T241 611Q203 611 177 588T137 523T123 425V0H55V423Q55 506 77 560T139 642T231 669Q285 669 327 645T395 580T420 493Q420 465 411 439T384 393T341 359Q370 350 392 333T431 293T455 241T464 181Q464 128 442 85T378 16T281 -10Z"
/>
<glyph unicode="&#xe0;" horiz-adv-x="500" d="M211 -11Q133 -11 91 24T49 115Q49 152 67 181T116 231T190 263T279 274Q296 274 313 274T350 272T391 267L393 212Q375 215 357 216T320 219T285 220Q249 220 219 214T167 196T133 165T121 119Q121 98 128 84T149
61T179 48T218 44Q257 44 287 56T339 93T372 152T383 232Q383 300 367 338T320 392T239 408Q206 408 174 396T116 357L81 403Q113 435 155 451T244 467Q289 467 326 456T389 420T430 351T445 243V0H367V70Q354 45 336 29T296 5T253 -7T211 -11ZM500 507L399 642L454
682L538 533L500 507Z" />
<glyph unicode="&#xe1;" horiz-adv-x="500" d="M211 -11Q133 -11 91 24T49 115Q49 152 67 181T116 231T190 263T279 274Q296 274 313 274T350 272T391 267L393 212Q375 215 357 216T320 219T285 220Q249 220 219 214T167 196T133 165T121 119Q121 98 128 84T149
61T179 48T218 44Q257 44 287 56T339 93T372 152T383 232Q383 300 367 338T320 392T239 408Q206 408 174 396T116 357L81 403Q113 435 155 451T244 467Q289 467 326 456T389 420T430 351T445 243V0H367V70Q354 45 336 29T296 5T253 -7T211 -11ZM499 763L461 789L545
938L600 898L499 763Z" />
<glyph unicode="&#xe2;" horiz-adv-x="500" d="M211 -11Q133 -11 91 24T49 115Q49 152 67 181T116 231T190 263T279 274Q296 274 313 274T350 272T391 267L393 212Q375 215 357 216T320 219T285 220Q249 220 219 214T167 196T133 165T121 119Q121 98 128 84T149
61T179 48T218 44Q257 44 287 56T339 93T372 152T383 232Q383 300 367 338T320 392T239 408Q206 408 174 396T116 357L81 403Q113 435 155 451T244 467Q289 467 326 456T389 420T430 351T445 243V0H367V70Q354 45 336 29T296 5T253 -7T211 -11ZM139 511L99 545L238
685H262L401 545L361 511L250 621L139 511Z" />
<glyph unicode="&#xe3;" horiz-adv-x="500" d="M211 -11Q133 -11 91 24T49 115Q49 152 67 181T116 231T190 263T279 274Q296 274 313 274T350 272T391 267L393 212Q375 215 357 216T320 219T285 220Q249 220 219 214T167 196T133 165T121 119Q121 98 128 84T149
61T179 48T218 44Q257 44 287 56T339 93T372 152T383 232Q383 300 367 338T320 392T239 408Q206 408 174 396T116 357L81 403Q113 435 155 451T244 467Q289 467 326 456T389 420T430 351T445 243V0H367V70Q354 45 336 29T296 5T253 -7T211 -11ZM631 677L677 649Q655
607 635 591T584 574Q562 574 545 582T513 601T484 620T452 628Q435 628 422 618T396 581L347 603Q361 637 386 660T450 683Q472 683 488 675T519 656T547 637T580 629Q596 629 606 639T631 677Z" />
<glyph unicode="&#xe4;" horiz-adv-x="500" d="M211 -11Q133 -11 91 24T49 115Q49 152 67 181T116 231T190 263T279 274Q296 274 313 274T350 272T391 267L393 212Q375 215 357 216T320 219T285 220Q249 220 219 214T167 196T133 165T121 119Q121 98 128 84T149
61T179 48T218 44Q257 44 287 56T339 93T372 152T383 232Q383 300 367 338T320 392T239 408Q206 408 174 396T116 357L81 403Q113 435 155 451T244 467Q289 467 326 456T389 420T430 351T445 243V0H367V70Q354 45 336 29T296 5T253 -7T211 -11ZM418 564Q397 564
382 579T367 614Q367 634 382 649T418 665Q438 665 453 650T468 614Q468 594 453 579T418 564ZM596 564Q575 564 561 578T546 614Q546 635 560 650T596 665Q616 665 631 650T646 614Q646 594 631 579T596 564Z" />
<glyph unicode="&#xe5;" horiz-adv-x="500" d="M211 -11Q133 -11 91 24T49 115Q49 152 67 181T116 231T190 263T279 274Q296 274 313 274T350 272T391 267L393 212Q375 215 357 216T320 219T285 220Q249 220 219 214T167 196T133 165T121 119Q121 98 128 84T149
61T179 48T218 44Q257 44 287 56T339 93T372 152T383 232Q383 300 367 338T320 392T239 408Q206 408 174 396T116 357L81 403Q113 435 155 451T244 467Q289 467 326 456T389 420T430 351T445 243V0H367V70Q354 45 336 29T296 5T253 -7T211 -11ZM505 517Q481 517
461 529T427 561T414 605Q414 629 427 649T460 681T505 693Q530 693 551 681T584 650T597 605Q597 581 584 561T551 529T505 517ZM506 560Q523 560 535 573T548 606Q548 625 536 638T506 652Q489 652 477 639T465 606Q465 587 477 574T506 560Z" />
<glyph unicode="&#xe6;" horiz-adv-x="500" d="M142 -11Q95 -11 66 7T24 55T10 123Q10 159 23 187T63 235T129 266T221 279Q221 323 213 352T188 396T142 411Q120 411 101 401T66 368L31 412Q53 440 81 453T147 467Q171 467 192 460T231 439T258 405Q270 425 286
438T322 459T362 467Q408 467 436 443T477 375T490 268V230L282 223V175Q282 146 289 123T310 82T343 56T386 47Q402 47 415 51T439 63T459 84L494 42Q472 16 444 3T380 -11Q355 -11 332 -3T289 21T255 58Q244 37 227 22T188 -2T142 -11ZM144 50Q180 50 196 73T216
134T221 219Q168 217 136 208T89 178T74 122Q74 94 82 79T106 57T144 50ZM282 279L432 284Q432 326 425 354T403 397T362 411Q337 411 319 396T292 351T282 279Z" />
<glyph unicode="&#xe7;" horiz-adv-x="500" d="M285 -11Q235 -11 193 7T121 57T73 132T56 228Q56 279 73 322T120 398T193 448T284 466Q340 466 384 444T457 381L412 337L405 330L400 335Q400 343 397 350T381 369Q359 389 334 397T276 405Q247 405 221 393T175
359T142 304T130 233Q130 194 142 162T175 105T225 68T289 54Q312 54 333 60T373 79T408 110L450 61Q416 25 375 7T285 -11V-11ZM283 -197Q257 -197 232 -190T184 -166L209 -124Q228 -139 249 -146T296 -154Q322 -154 334 -145T346 -118Q346 -102 332 -94T295 -85H265L276
0H320L314 -47Q344 -49 362 -59T390 -83T399 -112Q399 -146 371 -171T283 -197Z" />
<glyph unicode="&#xe8;" horiz-adv-x="500" d="M272 -10Q222 -10 181 5T111 51T65 125T49 227Q49 285 65 330T110 405T177 452T259 468Q298 468 332 455T391 416T430 348T445 251Q445 243 445 235T443 218H118Q120 174 133 142T167 89T215 58T274 48Q298 48 319
53T358 70T392 99L432 60Q413 37 389 21T335 -2T272 -10ZM121 274H372Q372 306 364 331T340 375T303 403T254 413Q230 413 209 405T169 380T139 336T121 274ZM510 507L409 642L464 682L548 533L510 507Z" />
<glyph unicode="&#xe9;" horiz-adv-x="500" d="M272 -10Q222 -10 181 5T111 51T65 125T49 227Q49 285 65 330T110 405T177 452T259 468Q298 468 332 455T391 416T430 348T445 251Q445 243 445 235T443 218H118Q120 174 133 142T167 89T215 58T274 48Q298 48 319
53T358 70T392 99L432 60Q413 37 389 21T335 -2T272 -10ZM121 274H372Q372 306 364 331T340 375T303 403T254 413Q230 413 209 405T169 380T139 336T121 274ZM509 763L471 789L555 938L610 898L509 763Z" />
<glyph unicode="&#xea;" horiz-adv-x="500" d="M272 -10Q222 -10 181 5T111 51T65 125T49 227Q49 285 65 330T110 405T177 452T259 468Q298 468 332 455T391 416T430 348T445 251Q445 243 445 235T443 218H118Q120 174 133 142T167 89T215 58T274 48Q298 48 319
53T358 70T392 99L432 60Q413 37 389 21T335 -2T272 -10ZM121 274H372Q372 306 364 331T340 375T303 403T254 413Q230 413 209 405T169 380T139 336T121 274ZM149 511L109 545L248 685H272L411 545L371 511L260 621L149 511Z" />
<glyph unicode="&#xeb;" horiz-adv-x="500" d="M272 -10Q222 -10 181 5T111 51T65 125T49 227Q49 285 65 330T110 405T177 452T259 468Q298 468 332 455T391 416T430 348T445 251Q445 243 445 235T443 218H118Q120 174 133 142T167 89T215 58T274 48Q298 48 319
53T358 70T392 99L432 60Q413 37 389 21T335 -2T272 -10ZM121 274H372Q372 306 364 331T340 375T303 403T254 413Q230 413 209 405T169 380T139 336T121 274ZM172 564Q151 564 136 579T121 614Q121 634 136 649T172 665Q192 665 207 650T222 614Q222 594 207 579T172
564ZM350 564Q329 564 315 578T300 614Q300 635 314 650T350 665Q370 665 385 650T400 614Q400 594 385 579T350 564Z" />
<glyph unicode="&#xec;" horiz-adv-x="500" d="M100 0V58H217V399H106V457H289V58H396V0H100ZM500 507L399 642L454 682L538 533L500 507Z" />
<glyph unicode="&#xed;" horiz-adv-x="500" d="M100 0V58H217V399H106V457H289V58H396V0H100ZM502 522L464 548L548 697L603 657L502 522Z" />
<glyph unicode="&#xee;" horiz-adv-x="500" d="M100 0V58H217V399H106V457H289V58H396V0H100ZM139 511L99 545L238 685H262L401 545L361 511L250 621L139 511Z" />
<glyph unicode="&#xef;" horiz-adv-x="500" d="M100 0V58H217V399H106V457H289V58H396V0H100ZM411 564Q390 564 375 579T360 614Q360 634 375 649T411 665Q431 665 446 650T461 614Q461 594 446 579T411 564ZM589 564Q568 564 554 578T539 614Q539 635 553 650T589
665Q609 665 624 650T639 614Q639 594 624 579T589 564Z" />
<glyph unicode="&#xf0;" horiz-adv-x="500" d="M256 -12Q213 -12 174 5T105 54T57 129T40 223Q40 273 57 317T103 395T168 448T242 467Q268 467 290 462T333 445T369 415Q353 453 332 487T283 552L155 516L137 564L241 592Q226 605 210 616T176 637T139 656L220
672Q243 659 264 644T307 610L415 639L432 595L347 570Q375 538 396 503T431 427T453 344T460 253Q460 193 447 144T408 61T344 7T256 -12ZM256 50Q281 50 304 60T346 93T376 150T387 232Q387 271 379 300T358 349T328 381T291 400T253 406Q229 406 205 395T161
362T129 308T117 232Q117 191 128 158T158 100T202 63T256 50Z" />
<glyph unicode="&#xf1;" horiz-adv-x="500" d="M72 0V457H142V376Q160 404 184 424T237 456T297 468Q335 468 365 449T413 388T431 277V0H361V275Q361 323 350 351T320 392T277 405Q254 405 231 395T187 367T155 322T142 263V0H72ZM390 677L436 649Q414 607 394
591T343 574Q321 574 304 582T272 601T243 620T211 628Q194 628 181 618T155 581L106 603Q120 637 145 660T209 683Q231 683 247 675T278 656T306 637T339 629Q355 629 365 639T390 677Z" />
<glyph unicode="&#xf2;" horiz-adv-x="500" d="M250 -8Q188 -8 141 22T66 106T39 229Q39 299 66 352T140 436T250 467Q312 467 359 437T434 353T461 229Q461 160 434 107T360 23T250 -8ZM250 52Q290 52 320 75T367 138T385 230Q385 282 368 322T320 384T250 407Q211
407 181 385T133 322T115 230Q115 178 132 138T180 75T250 52ZM500 507L399 642L454 682L538 533L500 507Z" />
<glyph unicode="&#xf3;" horiz-adv-x="500" d="M250 -8Q188 -8 141 22T66 106T39 229Q39 299 66 352T140 436T250 467Q312 467 359 437T434 353T461 229Q461 160 434 107T360 23T250 -8ZM250 52Q290 52 320 75T367 138T385 230Q385 282 368 322T320 384T250 407Q211
407 181 385T133 322T115 230Q115 178 132 138T180 75T250 52ZM499 763L461 789L545 938L600 898L499 763Z" />
<glyph unicode="&#xf4;" horiz-adv-x="500" d="M250 -8Q188 -8 141 22T66 106T39 229Q39 299 66 352T140 436T250 467Q312 467 359 437T434 353T461 229Q461 160 434 107T360 23T250 -8ZM250 52Q290 52 320 75T367 138T385 230Q385 282 368 322T320 384T250 407Q211
407 181 385T133 322T115 230Q115 178 132 138T180 75T250 52ZM139 511L99 545L238 685H262L401 545L361 511L250 621L139 511Z" />
<glyph unicode="&#xf5;" horiz-adv-x="500" d="M250 -8Q188 -8 141 22T66 106T39 229Q39 299 66 352T140 436T250 467Q312 467 359 437T434 353T461 229Q461 160 434 107T360 23T250 -8ZM250 52Q290 52 320 75T367 138T385 230Q385 282 368 322T320 384T250 407Q211
407 181 385T133 322T115 230Q115 178 132 138T180 75T250 52ZM631 677L677 649Q655 607 635 591T584 574Q562 574 545 582T513 601T484 620T452 628Q435 628 422 618T396 581L347 603Q361 637 386 660T450 683Q472 683 488 675T519 656T547 637T580 629Q596 629
606 639T631 677Z" />
<glyph unicode="&#xf6;" horiz-adv-x="500" d="M250 -8Q188 -8 141 22T66 106T39 229Q39 299 66 352T140 436T250 467Q312 467 359 437T434 353T461 229Q461 160 434 107T360 23T250 -8ZM250 52Q290 52 320 75T367 138T385 230Q385 282 368 322T320 384T250 407Q211
407 181 385T133 322T115 230Q115 178 132 138T180 75T250 52ZM418 564Q397 564 382 579T367 614Q367 634 382 649T418 665Q438 665 453 650T468 614Q468 594 453 579T418 564ZM596 564Q575 564 561 578T546 614Q546 635 560 650T596 665Q616 665 631 650T646 614Q646
594 631 579T596 564Z" />
<glyph unicode="&#xf7;" horiz-adv-x="500" d="M71 281V348H431V281H71ZM255 432Q237 432 224 445T211 476Q211 495 224 508T255 522Q274 522 287 508T300 476Q300 458 287 445T255 432ZM256 104Q238 104 224 116T210 148Q210 168 224 181T256 194Q273 194 286
180T300 148Q300 130 287 117T256 104Z" />
<glyph unicode="&#xf8;" horiz-adv-x="500" d="M121 -63L70 -36L372 519L426 491L121 -63ZM250 -8Q188 -8 141 22T66 106T39 229Q39 299 66 352T140 436T250 467Q312 467 359 437T434 353T461 229Q461 160 434 107T360 23T250 -8ZM250 52Q290 52 320 75T367 138T385
230Q385 282 368 322T320 384T250 407Q211 407 181 385T133 322T115 230Q115 178 132 138T180 75T250 52Z" />
<glyph unicode="&#xf9;" horiz-adv-x="500" d="M221 -11Q194 -11 170 -3T127 21T93 63T72 123T64 202L65 457H135V202Q135 159 143 129T165 81T199 55T239 47Q263 47 285 56T324 85T352 134T362 205V457H432V71Q432 53 433 36T442 0H373Q368 12 366 23T364 47T363
70Q352 51 337 36T304 11T265 -5T221 -11ZM500 507L399 642L454 682L538 533L500 507Z" />
<glyph unicode="&#xfa;" horiz-adv-x="500" d="M221 -11Q194 -11 170 -3T127 21T93 63T72 123T64 202L65 457H135V202Q135 159 143 129T165 81T199 55T239 47Q263 47 285 56T324 85T352 134T362 205V457H432V71Q432 53 433 36T442 0H373Q368 12 366 23T364 47T363
70Q352 51 337 36T304 11T265 -5T221 -11ZM499 763L461 789L545 938L600 898L499 763Z" />
<glyph unicode="&#xfb;" horiz-adv-x="500" d="M221 -11Q194 -11 170 -3T127 21T93 63T72 123T64 202L65 457H135V202Q135 159 143 129T165 81T199 55T239 47Q263 47 285 56T324 85T352 134T362 205V457H432V71Q432 53 433 36T442 0H373Q368 12 366 23T364 47T363
70Q352 51 337 36T304 11T265 -5T221 -11ZM139 511L99 545L238 685H262L401 545L361 511L250 621L139 511Z" />
<glyph unicode="&#xfc;" horiz-adv-x="500" d="M221 -11Q194 -11 170 -3T127 21T93 63T72 123T64 202L65 457H135V202Q135 159 143 129T165 81T199 55T239 47Q263 47 285 56T324 85T352 134T362 205V457H432V71Q432 53 433 36T442 0H373Q368 12 366 23T364 47T363
70Q352 51 337 36T304 11T265 -5T221 -11ZM418 564Q397 564 382 579T367 614Q367 634 382 649T418 665Q438 665 453 650T468 614Q468 594 453 579T418 564ZM596 564Q575 564 561 578T546 614Q546 635 560 650T596 665Q616 665 631 650T646 614Q646 594 631 579T596
564Z" />
<glyph unicode="&#xfd;" horiz-adv-x="500" d="M127 -174Q95 -174 69 -164T22 -135L53 -86L59 -77L65 -81Q67 -89 72 -94T91 -109Q100 -112 110 -113T131 -115Q158 -115 176 -102T209 -62T236 6L323 275Q338 321 352 366T371 457H443Q436 411 421 364T389 270L275
-52Q251 -119 214 -146T127 -174V-174ZM46 457H121L269 76L237 -13L46 457ZM502 763L464 789L548 938L603 898L502 763Z" />
<glyph unicode="&#xfe;" horiz-adv-x="500" d="M60 665H132H142V658Q136 652 135 645T133 621V367Q144 402 164 424T212 456T272 467Q310 467 344 453T405 409T447 336T463 232Q463 172 447 126T403 50T341 4T270 -12Q243 -12 218 -4T171 21T134 60V-167H60V665ZM258
52Q282 52 305 60T347 89T377 143T388 229Q388 284 374 322T334 382T269 405Q241 407 217 397T173 364T144 304T133 213Q134 181 140 155T157 110T183 78T217 59T258 52V52Z" />
<glyph unicode="&#xff;" horiz-adv-x="500" d="M127 -174Q95 -174 69 -164T22 -135L53 -86L59 -77L65 -81Q67 -89 72 -94T91 -109Q100 -112 110 -113T131 -115Q158 -115 176 -102T209 -62T236 6L323 275Q338 321 352 366T371 457H443Q436 411 421 364T389 270L275
-52Q251 -119 214 -146T127 -174V-174ZM46 457H121L269 76L237 -13L46 457ZM165 564Q144 564 129 579T114 614Q114 634 129 649T165 665Q185 665 200 650T215 614Q215 594 200 579T165 564ZM343 564Q322 564 308 578T293 614Q293 635 307 650T343 665Q363 665 378
650T393 614Q393 594 378 579T343 564Z" />
<glyph unicode="&#x2013;" horiz-adv-x="500" d="M71 281V348H431V281H71Z" />
<glyph unicode="&#x2014;" horiz-adv-x="500" d="M10 281V348H490V281H10Z" />
<glyph unicode="&#x2018;" horiz-adv-x="500" d="M287 638L321 608Q303 591 288 571T265 534T256 503Q256 493 263 484T281 467T299 449T307 426Q307 401 291 384T248 367Q222 367 201 390T180 450Q180 477 192 506T227 569T287 638Z" />
<glyph unicode="&#x2019;" horiz-adv-x="500" d="M199 367L165 397Q184 415 198 434T221 472T230 502Q230 513 223 521T205 538T187 556T179 579Q179 604 195 621T238 638Q264 638 285 615T306 555Q306 529 294 499T259 437T199 367Z" />
<glyph unicode="&#x201a;" horiz-adv-x="500" d="M199 -165L165 -135Q184 -117 198 -98T221 -60T230 -30Q230 -19 223 -11T205 6T187 24T179 47Q179 72 195 89T238 106Q264 106 285 83T306 23Q306 -3 294 -33T259 -95T199 -165Z" />
<glyph unicode="&#x201c;" horiz-adv-x="500" d="M187 638L221 608Q203 591 188 571T165 534T156 503Q156 493 163 484T181 467T199 449T207 426Q207 401 191 384T148 367Q122 367 101 390T80 450Q80 477 92 506T128 569T187 638ZM392 638L426 608Q408 591 393
571T370 534T361 503Q361 493 368 484T386 467T404 449T412 426Q412 401 396 384T353 367Q327 367 306 390T285 450Q285 477 297 506T333 569T392 638Z" />
<glyph unicode="&#x201d;" horiz-adv-x="500" d="M321 367L287 397Q306 415 320 434T343 472T352 502Q352 513 345 521T327 538T309 556T301 579Q301 604 317 621T360 638Q386 638 407 615T428 555Q428 529 416 499T381 437T321 367ZM116 367L82 397Q101 415 115
434T138 472T147 502Q147 513 140 521T122 538T104 556T96 579Q96 604 112 621T155 638Q181 638 202 615T223 555Q223 529 211 499T176 437T116 367Z" />
<glyph unicode="&#x201e;" horiz-adv-x="500" d="M94 -165L60 -135Q79 -117 93 -98T116 -60T125 -30Q125 -19 118 -11T100 6T82 24T74 47Q74 72 90 89T133 106Q159 106 180 83T201 23Q201 -3 189 -33T154 -95T94 -165ZM304 -165L270 -135Q289 -117 303 -98T326
-60T335 -30Q335 -19 328 -11T310 6T292 24T284 47Q284 72 300 89T343 106Q369 106 390 83T411 23Q411 -3 399 -33T364 -95T304 -165Z" />
<glyph unicode="&#x2022;" horiz-adv-x="500" d="M250 213Q227 213 208 224T177 255T165 296Q165 320 177 339T208 369T250 380Q273 380 292 369T323 338T335 296Q335 274 324 255T293 225T250 213Z" />
<glyph unicode="&#x2039;" horiz-adv-x="500" d="M303 61L145 230V253L297 400L336 359L215 241L343 101L303 61Z" />
<glyph unicode="&#x203a;" horiz-adv-x="500" d="M185 61L145 101L273 241L152 359L191 400L343 253V230L185 61Z" />
</font>
</defs>
</svg>
